Most viewed

Intervista la scrittrice Tiziana Tomasini Tiziana Tomasini, vincitrice del concorso Frontiere - Grenzen, è stata intervistata dal nostro Ferruccio Gianola intervista lo scrittore Furio Ombri Ferruccio Gianola ha intervistato per lo scrittore Furio Ombri, vincitore dell'ottava edizione del concorso Lama e Trama.Conclude lincontro una conversazione di Vanni Santoni con Giulio..
Read more
Ripara piccoli elettrodomestici, così non avrai spese di trasporto e problemi di magazzino.Trovare lavoro da casa come consulente Ci piace perché puoi sfruttare le tue attuali competenze Per diventare un consulente è necessario che abbia delle competenze in un campo specifico ; questo ti consentirà di vendere i tuoi consigli..
Read more
Unaltra domanda che sicuramente vi sarete posti è quella sul tipo di rasoio elettrico, una delle macro-categorie da individuare prima dellacquisto.A testine o lamina?Sotto trovate un piccolo riassunto dei vantaggi di cui potrete godere nel caso compriate su Ebay o Amazon.Voglio solamente accorciare la barba, meglio un regolabarba, per motivi..
Read more

Regali per la caccia




regali per la caccia

Finita la mattinata dedicata alla caccia si rientra in Club-House, volendo si fa una doccia e ci si cambia e poi si è pronti per gustare un appetitoso pranzo.
Wav Peak level.6 Track quality 100.0 Test CRC quasimodo premio 31DC1CB3 Copy CRC 31DC1CB3 Accurately ripped (confidence 4) C1404CC5 Copy OK Track 7 Filename C:New Folder07 - Concerto premio alla nascita cittadino in Re maggiore, RV 234 'L'Inquietudine'-.
Antonio Vivaldi / Concerti per violino I 'La caccia' (Academia Montis Regalis, Enrico Onofri).
Exe, additional command line options : -V -8 -T "artista" -T "titlet" -T "albumg" -T "datey" -T "tracknumbern" -T "genrem".Regala un viaggio in una riserva di caccia con Montefeltro!p Materiale: cotone /p Zona di riscaldamento: punta indietro /p Temperatura di riscaldamento: circa 50 /p Alimentato dal vano batterie a 3.Wav Peak level.6 Track quality 100.0 Test CRC adaf23F7 Copy CRC adaf23F7 Accurately ripped (confidence 4) Copy OK Track 17 Filename C:New Folder17 - Concerto in Mi maggiore, RV 270 'Il Riposo'-.Concerto RV199 Il Sospetto in C minor for violin, strings and continuo 13-15.Wav Pre-gap length 0:00:02.00 Peak level.1 Track quality 100.0 Test CRC 2F1FD70B Copy CRC 2F1FD70B Accurately ripped (confidence 4) 0D09916F Copy OK Track 2 Filename C:New Folder02 - Concerto in Re maggiore, RV 208 'Grosso Mogul'-.Scopri tutte le idee regalo per lui.Non aspettare oltre a prenotare, Natale si avvicina.Per sottoiscriversi alla newsletter cliccare su questa casella.Immersi nella natura solo con locchio attento a seguire il cane e lorecchio teso al richiamo delle starne da un versante allaltro.Concerto RV270 Il Riposo in E major for violin, strings and continuo.
Dicembre è ormai arrivato e con lui anche la corsa frenetica alla ricerca del regalo di Natale perfetto. .
Wav Peak level.0 Track quality.9 Test CRC 946513B6 Copy CRC 946513B6 Accurately ripped (confidence 4) E519FA63 Copy OK Track 12 Filename C:New Folder12 - Concerto in Do minore, RV 199 'Il Sospetto'- III.Wav Peak level.5 Track quality 100.0 Test CRC F2A33FB5 Copy CRC F2A33FB5 Accurately ripped (confidence 4) 4E71E145 Copy OK Track 14 Filename C:New Folder14 - Concerto in Si Bemolle maggiore, RV 362 'La Caccia'-.La cancellazione alla sottoscrizione è possibile in qualsiasi momento.Wav Peak level.0 Track quality 100.0 Test CRC 6F8A1A24 Copy CRC 6F8A1A24 Accurately ripped (confidence 4) 6E7B207A Copy OK Track 15 Filename C:New Folder15 - Concerto in Si Bemolle maggiore, RV 362 'La Caccia'- III.Wav Peak level.7 Track quality 100.0 Test CRC 60492EB4 Copy CRC 60492EB4 Accurately ripped (confidence 4) ED34A662 Copy OK Track 13 Filename C:New Folder13 - Concerto in Si Bemolle maggiore, RV 362 'La Caccia'-.EAC extraction logfile from.

Allegro - Con l'arco attaccato alle corde.


Sitemap